logo
Main Page Sitemap

Last news

Racing game friends season 8 episode 20 fans could relate the effect of this nifty add-on to a nitro boost.Ranging from your run-in-the-mill makeshift paper wings to something that looks like it was taken off an airplane, a glider turns the penguin's dream into a..
Read more
Download.torrent, you need uTorrent for downloading.torrent files.Such devices may carry the USB logo only if sold with a separate extension cable.Please help improve it by removing references to unreliable sources, where they are used inappropriately.Desired mode of operation (either regular USB mass storage device or..
Read more

Picture book the kinks


picture book the kinks

08 The Road (Live) 09 Million Pound Semi Detached 10 Down game jo's dream organic coffee 2 full version All The Days (To 1992) 11 The Informer 12 Phobia 13 Only A Dream 14 Drift Away 15 Scattered 16 Do You Remember Walter?
Wav Pre-gap length 0:00:03.22 Peak level.8 Track quality 100.0 Test CRC fsx sp2 crack rar C57FB1C2 Copy CRC C57FB1C2 Accurately ripped (confidence 10) C22AA9D5 Copy OK Track 20 Filename D:EAC20 - Autumn Almanac.
Wav Pre-gap length 0:00:01.72 Peak level.7 Track quality 100.0 Test CRC 09F9FAE5 Copy CRC 09F9FAE5 Accurately ripped (confidence 11) B0E4F6CD Copy OK Track 15 Filename D:EAC15 - Apeman.Wav Pre-gap length 0:00:02.24 Peak level.3 Track quality 100.0 Test CRC 7A4DED16 Copy CRC 7A4DED16 Accurately ripped (confidence 10) 2E390AE7 Copy OK Track 7 Filename D:EAC07 - Rosy Won't You Please Come Home.Wav Pre-gap length 0:00:02.07 Peak level.7 Track quality 100.0 Test CRC 17D46594 Copy CRC 17D46594 Accurately ripped (confidence 10) 863E48F8 Copy OK Track 19 Filename D:EAC19 - The Poseur.Wav Pre-gap length 0:00:02.00 Peak level.7 Track quality 100.0 Test CRC 817EF6EF Copy CRC 817EF6EF Accurately ripped (confidence 10) 3FF23D7B Copy OK Track 13 Filename D:EAC13 - There Is A New World Opening For.Wav Pre-gap length 0:00:02.35 Peak level.7 Track quality.9 Test CRC 2E979E91 Copy CRC 2E979E91 Accurately ripped (confidence 10) 5CE45297 Copy OK Track 8 Filename D:EAC08 - Sitting In The Midday Sun.Wav Pre-gap length 0:00:02.04 Peak level.1 Track quality 100.0 Test CRC 6FF584F6 Copy CRC 6FF584F6 Accurately ripped (confidence 11) F959C4B6 Copy OK Track 5 Filename D:EAC05 - I'm Not Like Everybody Else.Wav Pre-gap length 0:00:01.74 Peak level.7 Track quality 100.0 Test CRC CE48AF13 Copy CRC CE48AF13 Accurately ripped (confidence 10) 5976404C Copy OK Track 7 Filename D:EAC07 - Hidden Quality.Wav Pre-gap length 0:00:01.68 Peak level.6 Track quality.9 Test CRC Copy CRC Accurately ripped (confidence 10) F447DF23 Copy OK Track 29 Filename D:EAC29 - Till The End Of The Day.
Wav kerberos vs ntlm sharepoint 2013 Pre-gap length 0:00:02.09 Peak level.0 Track quality 100.0 Test CRC D3D2FCE0 Copy CRC D3D2FCE0 Accurately ripped (confidence 11) D6D3FDC0 Copy OK Track 10 Filename D:EAC10 - All Day And All Of The Night.
Wav Pre-gap length 0:00:01.66 Peak level.1 Track quality 100.0 Test CRC 065C1D42 Copy CRC 065C1D42 Accurately ripped (confidence 10) 97121F11 Copy OK Track 16 Filename D:EAC16 - (A) Face In The Crowd.




Wav Pre-gap length 0:00:02.00 Peak level.7 Track quality 100.0 Test CRC E159627E Copy CRC E159627E Accurately ripped (confidence 11) 480eafaa Copy OK Track 21 Filename D:EAC21 - Twentieth Century Man.Wav Pre-gap length 0:00:01.69 Peak level.2 Track quality 100.0 Test CRC 7CB797E6 Copy CRC 7CB797E6 Accurately ripped (confidence 11) 64F1E417 Copy OK Track 15 Filename D:EAC15 - Who'll Be The Next In Line.Wav Pre-gap length 0:00:02.01 Peak level.0 Track quality 100.0 Test CRC 9D2DB42A Copy CRC 9D2DB42A Accurately ripped (confidence 11) B1FB4F9F Copy OK Track 33 Filename D:EAC33 - Sittin' On My Sofa.Wav Pre-gap length 0:00:02.09 Peak level.0 Track quality 100.0 Test CRC 404DD9A3 Copy CRC 404DD9A3 Accurately ripped (confidence 10) 447E8C19 Copy OK Track 4 Filename D:EAC04 - King Kong.Wav Pre-gap length 0:00:02.02 Peak level.8 Track quality 100.0 Test CRC 95CC00DA Copy CRC 95CC00DA Accurately ripped (confidence 9) 22D5BA5B Copy OK Track 10 Filename D:EAC10 - Down All The Days (To 1992).wav Pre-gap length 0:00:01.71 Peak level.7 Track quality 100.0 Test CRC.Wav Pre-gap length 0:00:01.74 Peak level.1 Track quality 100.0 Test CRC 1C8078EE Copy CRC 1C8078EE Accurately ripped (confidence 9) F9BB09D7 Copy OK Track 12 Filename D:EAC12 - Phobia.Wav Pre-gap length 0:00:02.00 Peak level.7 Track quality.7 Test CRC 05107A3D Copy CRC 05107A3D Accurately ripped (confidence 8) 6BC8F9B2 Copy OK Track 2 Filename D:EAC02 - Come Dancing.
Wav Pre-gap length 0:00:02.45 Peak level.7 Track quality 100.0 Test CRC FEF0A2DC Copy CRC FEF0A2DC Accurately ripped (confidence 10) 5956542A Copy OK Track 7 Filename D:EAC07 - Victoria.
Wav Pre-gap length 0:00:02.04 Peak level.8 Track quality.9 Test CRC E2A04C74 Copy CRC E2A04C74 Accurately ripped (confidence 11) F3014C1F Copy OK Track 5 Filename D:EAC05 - Long Tall Sally.


Sitemap